Details for this torrent 

24.S08E12.PROPER.HDTV.XviD-2HD.eztv
Type:
Video > TV shows
Files:
1
Size:
349.59 MiB (366574578 Bytes)
Spoken language(s):
English
Tag(s):
24 s08 e12 EZTV
Uploaded:
2010-03-16 20:28:51 GMT
By:
babel55
Seeders:
1
Leechers:
0
Comments
8  

Info Hash:
918E7BC2A28F825DAED4AB3674795AADCCA1856F




(Problems with magnets links are fixed by upgrading your torrent client!)
JUST CUZ EZTV DIDN'T POSTED IT HERE!


General
Complete name                    : 24.S08E12.PROPER.HDTV.XviD-2HD.avi
Format                           : AVI
Format/Info                      : Audio Video Interleave
File size                        : 350 MiB
Duration                         : 42mn 38s
Overall bit rate                 : 1 146 Kbps
Writing application              : MEncoder dev-SVN-r26940
Writing library                  : MPlayer

Video
ID                               : 0
Format                           : MPEG-4 Visual
Format profile                   : Advanced [email protected]
Format settings, BVOP            : Yes
Format settings, QPel            : No
Format settings, GMC             : No warppoints
Format settings, Matrix          : Default (H.263)
Codec ID                         : XVID
Codec ID/Hint                    : XviD
Duration                         : 42mn 38s
Bit rate                         : 1 005 Kbps
Width                            : 624 pixels
Height                           : 352 pixels
Display aspect ratio             : 16:9
Frame rate                       : 23.976 fps
Resolution                       : 8 bits
Colorimetry                      : 4:2:0
Scan type                        : Progressive
Bits/(Pixel*Frame)               : 0.191
Stream size                      : 307 MiB (88%)
Writing library                  : XviD 1.2.1 (UTC 2008-12-04)

Audio
ID                               : 1
Format                           : MPEG Audio
Format version                   : Version 1
Format profile                   : Layer 3
Mode                             : Joint stereo
Format_Settings_ModeExtension    : MS Stereo
Codec ID                         : 55
Codec ID/Hint                    : MP3
Duration                         : 42mn 38s
Bit rate mode                    : Variable
Bit rate                         : 128 Kbps
Channel(s)                       : 2 channels
Sampling rate                    : 48.0 KHz
Stream size                      : 39.1 MiB (11%)
Alignment                        : Aligned on interleaves
Interleave, duration             : 24 ms (0.58 video frame)
Interleave, preload duration     : 477 ms

Comments

been waiting for this episode. thanks a lot!
Thx, I prefer 2 dl it from here though it takes far 2 long on eztv.... so thx 4 doing it....
can anyone be kind enough to send me a revolutiontt invite,it has been over a year of me trying to get it,plz i need that invite so much .email:[email protected]
DO NOT DOWNLOAD This is episode 11 NOT episode 12

i think im gonna wait for eztv to upload it here or VTV they are more trusted
I downloaded this torrent from the site that eztv owns. I just posted it here, because eztv didn't. And i know that a lot people prefer the upload from eztv so i thought why not.. And this is episode 12...
babels55 thanks for this great upload. if u would continue uploading of merlin series that would be great. once more thanks. saint4eva
This sand nigger uploaded the wrong ep!